<?xml version="1.0" standalone="no"?>
<!DOCTYPE svg PUBLIC "-//W3C//DTD SVG 1.1//EN" "http://www.w3.org/Graphics/SVG/1.1/DTD/svg11.dtd" >
<svg xmlns="http://www.w3.org/2000/svg">
<metadata>
This is a custom SVG webfont generated by Fontspring.
</metadata>
<defs>
<font id="Museo300" horiz-adv-x="1241" >
<font-face units-per-em="2048" ascent="1536" descent="-512" />
<missing-glyph horiz-adv-x="557" />
<glyph unicode=" "  horiz-adv-x="557" />
<glyph unicode="&#x09;" horiz-adv-x="557" />
<glyph unicode="&#xa0;" horiz-adv-x="557" />
<glyph unicode="!" horiz-adv-x="608" d="M227 0v158h158v-158h-158zM231 1440h144l-6 -1063h-131z" />
<glyph unicode="&#x22;" horiz-adv-x="638" d="M135 1114v346h121v-346h-121zM383 1114v346h121v-346h-121z" />
<glyph unicode="#" horiz-adv-x="1460" d="M84 399l20 115h289l72 401h-289l19 115h290l72 410h125l-72 -410h355l71 410h125l-71 -410h286l-20 -115h-287l-70 -401h285l-18 -115h-287l-70 -399h-125l70 399h-354l-70 -399h-125l70 399h-291zM520 514h352l72 401h-354z" />
<glyph unicode="$" horiz-adv-x="1089" d="M94 246l107 86q4 -8 14 -23.5t44 -54.5t72 -67.5t101.5 -53t132.5 -24.5q127 0 206 73.5t79 182.5q0 72 -39 128t-101.5 94t-138 72.5t-152.5 73.5t-139.5 86t-101.5 120t-39 167q0 135 100.5 233.5t266.5 118.5v195h117v-191q129 -12 232 -71.5t103 -173.5v-103h-135v68 q0 63 -70.5 106t-170.5 43q-135 0 -215 -64.5t-80 -158.5q0 -80 52 -140.5t132 -96t171 -81t171 -91.5t132 -131t52 -197q0 -150 -103 -262.5t-271 -128.5v-191h-117v191q-80 8 -151.5 38.5t-116.5 67.5t-80 74t-49 61z" />
<glyph unicode="%" horiz-adv-x="1521" d="M127 1180q0 117 84 200.5t202.5 83.5t203.5 -84t85 -200q0 -119 -83.5 -202t-204.5 -83q-119 0 -203 83t-84 202zM139 0l1098 1440h145l-1095 -1440h-148zM248 1180q0 -72 48 -121t117.5 -49t119 49t49.5 121q0 70 -49.5 120t-119 50t-117.5 -50t-48 -120zM819 258 q0 119 84 203t203 84t204 -84t85 -203q0 -117 -85 -200t-204 -83t-203 83t-84 200zM942 260q0 -72 47 -121t117 -49t119 49t49 121q0 70 -49 120t-119 50t-117 -50t-47 -120z" />
<glyph unicode="&#x26;" horiz-adv-x="1277" d="M94 401q0 127 68.5 233.5t191.5 141.5v4q-8 2 -21.5 8.5t-47 31t-60 57t-48 92t-21.5 131.5q0 162 115.5 263t310.5 101q35 0 76.5 -5t66.5 -11l25 -6l-41 -117q-68 14 -119 14q-125 0 -206 -68.5t-81 -178.5q0 -43 11.5 -82t41 -83t96 -70t160.5 -26h299v199h142v-199 h190v-126h-190v-211q0 -252 -126 -385.5t-347 -133.5q-213 0 -349.5 122t-136.5 304zM240 406q0 -127 92 -212t247.5 -85t243.5 95t88 294v207h-295q-184 0 -280 -80t-96 -219z" />
<glyph unicode="'" horiz-adv-x="391" d="M135 1114v346h121v-346h-121z" />
<glyph unicode="(" horiz-adv-x="632" d="M174 680q0 461 221 815h131q-223 -377 -223 -805q0 -473 236 -885h-129q-236 386 -236 875z" />
<glyph unicode=")" horiz-adv-x="632" d="M94 -195q236 412 236 885q0 428 -224 805h132q221 -360 221 -815q0 -489 -236 -875h-129z" />
<glyph unicode="*" horiz-adv-x="976" d="M94 1104l41 129l295 -109l-12 316h139l-14 -316l299 107l41 -125l-303 -88v-4l192 -246l-106 -80l-177 260h-4l-174 -258l-108 78l192 246v4z" />
<glyph unicode="+" d="M86 522v119h473v522h125v-522h471v-119h-471v-522h-125v522h-473z" />
<glyph unicode="," horiz-adv-x="440" d="M47 -199l117 367h149l-149 -367h-117z" />
<glyph unicode="-" horiz-adv-x="884" d="M152 518v127h581v-127h-581z" />
<glyph unicode="." horiz-adv-x="440" d="M141 0v164h158v-164h-158z" />
<glyph unicode="/" horiz-adv-x="665" d="M6 -86l520 1606h129l-518 -1606h-131z" />
<glyph unicode="0" horiz-adv-x="1232" d="M121 721q0 743 495 743q180 0 295 -102t159 -262t44 -379q0 -745 -498 -746q-495 1 -495 746zM266 721q0 -612 350.5 -612t350.5 612q0 610 -350.5 610t-350.5 -610z" />
<glyph unicode="1" horiz-adv-x="974" d="M131 0v127h322v1057l2 80h-4q-14 -31 -72 -86l-154 -154l-90 92l326 324h135v-1313h315v-127h-780z" />
<glyph unicode="2" horiz-adv-x="1155" d="M86 141q0 147 79 257t190.5 176.5t223 129t190.5 150.5t79 205t-81 193.5t-214 76.5q-106 0 -181 -47t-75 -108v-68h-135v106q0 66 40 116t102.5 79t128 43t124.5 14q201 0 319.5 -115.5t118.5 -287.5q0 -139 -78.5 -245.5t-190.5 -174.5t-223.5 -130t-190.5 -148.5 t-79 -194.5q0 -41 48 -41h602q45 0 45 45v96h133v-143q0 -66 -30 -95.5t-95 -29.5h-721q-72 0 -100.5 32.5t-28.5 108.5z" />
<glyph unicode="3" horiz-adv-x="1081" d="M53 176l86 107q6 -6 17.5 -18.5t49.5 -42t79 -52.5t104.5 -41t126.5 -18q131 0 228.5 88t97.5 223q0 139 -102.5 221t-247.5 82h-101l-33 84l355 426q35 47 73 80v4q-41 -6 -116 -6h-375q-45 0 -45 -45v-97h-133v144q0 68 27.5 96.5t93.5 28.5h731v-94l-424 -498 q74 -4 146.5 -27.5t142 -71t112.5 -131t43 -194.5q0 -184 -136 -316.5t-339 -132.5q-80 0 -156.5 20.5t-129 50.5t-94.5 59.5t-60 50.5z" />
<glyph unicode="4" horiz-adv-x="1150" d="M31 397v95l700 948h154v-916h229v-127h-229v-397h-144v397h-710zM197 518q57 6 118 6h428v588l7 139h-5q-35 -59 -73 -110l-400 -529l-75 -90v-4z" />
<glyph unicode="5" horiz-adv-x="1165" d="M111 180l90 101q4 -6 13 -18.5t40 -41t65.5 -51.5t93 -41t122.5 -18q154 0 256 96t102 239q0 147 -107.5 242.5t-265.5 95.5q-72 0 -141.5 -19.5t-102.5 -39.5l-32 -20l-74 30l61 580q6 68 34 96.5t91 28.5h473q66 0 94.5 -30t28.5 -95v-144h-133v97q0 45 -45 45h-364 q-39 0 -45 -45l-37 -326l-13 -82h4q90 53 218 53q217 0 360 -136t143 -333q0 -195 -144 -332t-361 -137q-80 0 -154 21.5t-121 51.5t-83 59.5t-50 52.5z" />
<glyph unicode="6" horiz-adv-x="1146" d="M88 633q0 113 22.5 227.5t72.5 224t122 193.5t179.5 135t236.5 51q70 0 136.5 -15t96.5 -30l31 -14l-53 -125q-90 51 -209 51q-143 0 -250.5 -89t-162 -219t-68.5 -284h4q49 82 149.5 128t216.5 46q197 0 323 -128t126 -328q0 -219 -129 -350.5t-324 -131.5 q-231 0 -375.5 185.5t-144.5 472.5zM242 541q0 -154 106.5 -293t257.5 -139q143 0 226 97t83 249q0 150 -89 240.5t-236 90.5q-139 0 -243.5 -77.5t-104.5 -167.5z" />
<glyph unicode="7" horiz-adv-x="1048" d="M61 1171v144q0 66 29 95.5t94 29.5h850v-99l-712 -1341h-160l626 1180l80 133v4q-37 -4 -108 -4h-518q-45 0 -45 -45v-97h-136z" />
<glyph unicode="8" horiz-adv-x="1167" d="M96 406q0 70 27 135t64.5 108t74.5 76t64 47l26 14v5q-8 4 -21.5 11t-47 33.5t-59 58.5t-47 84t-21.5 109q0 158 116.5 267.5t317.5 109.5t320.5 -106.5t119.5 -276.5q0 -61 -19.5 -120.5t-48 -100.5t-57 -72.5t-49.5 -46.5l-18 -16v-4q113 -57 172 -134t59 -196 q0 -170 -140.5 -293t-342.5 -123q-201 0 -345.5 117t-144.5 314zM244 412q0 -135 101 -219t241 -84q133 0 234.5 80.5t101.5 203.5q0 102 -68 158.5t-207 112.5q-135 57 -168 57q-55 0 -145 -95t-90 -214zM299 1087q0 -102 68.5 -156t207.5 -106q104 -39 130 -39 q45 0 113.5 94.5t68.5 196.5q0 115 -83 184.5t-214 69.5q-133 0 -212 -70t-79 -174z" />
<glyph unicode="9" horiz-adv-x="1146" d="M88 983q0 219 128 350t323 131q231 0 375.5 -185t144.5 -472q0 -143 -38 -285.5t-110.5 -267.5t-198.5 -202t-286 -77q-70 0 -136.5 14.5t-96.5 30.5l-31 15l53 125q90 -51 209 -51q143 0 251.5 90t163 220t66.5 283h-4q-49 -82 -150.5 -129t-215.5 -47q-197 0 -322 128 t-125 329zM231 985q0 -150 89.5 -241t236.5 -91q139 0 243.5 78t104.5 168q0 154 -106.5 293t-257.5 139q-143 0 -226.5 -97t-83.5 -249z" />
<glyph unicode=":" horiz-adv-x="579" d="M211 0v164h158v-164h-158zM211 866v164h158v-164h-158z" />
<glyph unicode=";" horiz-adv-x="579" d="M111 -199l98 367h149l-131 -367h-116zM211 866v164h158v-164h-158z" />
<glyph unicode="&#x3c;" d="M141 530v103l926 414v-138l-752 -325v-4l752 -326v-137z" />
<glyph unicode="=" d="M143 344v119h955v-119h-955zM143 700v119h955v-119h-955z" />
<glyph unicode="&#x3e;" d="M158 117v137l751 326v4l-751 325v138l925 -414v-103z" />
<glyph unicode="?" horiz-adv-x="882" d="M80 1350q14 12 40.5 31.5t112.5 52t177 32.5q176 0 292.5 -102t116.5 -260q0 -94 -38 -170t-92 -126t-107.5 -97t-91 -109.5t-37.5 -136.5v-88h-140v92q0 90 37 164t89.5 125t105.5 99t90 109.5t37 131.5q0 100 -76 167.5t-193 67.5q-135 -2 -247 -88zM305 0v158h158 v-158h-158z" />
<glyph unicode="@" horiz-adv-x="1513" d="M84 495.5q0 313.5 214 532.5t515 219q258 0 380 -110.5t122 -276.5v-645h145v-115h-551q-174 0 -291.5 116t-117.5 277.5t116.5 277.5t292.5 116h267q-4 102 -92.5 170.5t-260.5 68.5q-250 0 -423 -185t-173 -445q0 -264 173 -445.5t434 -181.5v-123q-317 0 -533.5 218 t-216.5 531.5zM643 495.5q0 -116.5 81 -198.5t198 -82h254v563h-250q-121 0 -202 -83t-81 -199.5z" />
<glyph unicode="A" horiz-adv-x="1345" d="M25 0v127h26q57 0 74 45l471 1268h154l471 -1268q16 -45 73 -45h25v-127h-66q-78 0 -110.5 22.5t-59.5 96.5l-125 340h-571l-127 -340q-29 -74 -60.5 -96.5t-107.5 -22.5h-67zM426 584h494l-191 514l-55 186h-4q-31 -119 -56 -186z" />
<glyph unicode="B" d="M82 1313v127h612q172 0 280.5 -98.5t108.5 -264.5q0 -223 -184 -313v-4q111 -31 176.5 -128t65.5 -229q0 -186 -122 -294.5t-308 -108.5h-371q-66 0 -95.5 29.5t-29.5 95.5v1188h-133zM358 815h334q109 0 176.5 69.5t67.5 182.5q0 111 -66.5 178.5t-179.5 67.5h-332v-498 zM358 172q0 -45 45 -45h308q131 0 205.5 76t74.5 205t-77.5 206.5t-204.5 77.5h-351v-520z" />
<glyph unicode="C" horiz-adv-x="1421" d="M78 731q0 311 203.5 522t506.5 211q82 0 171.5 -17t174.5 -52t139 -96.5t54 -139.5v-119h-135v80q0 94 -129 151.5t-270 57.5q-242 0 -404 -169t-162 -429t164 -440t408 -180q250 0 438 170l33 32l82 -104q-8 -10 -23.5 -25.5t-69 -55.5t-114 -70.5t-154.5 -56.5 t-194 -26q-313 0 -516 218.5t-203 537.5z" />
<glyph unicode="D" horiz-adv-x="1464" d="M86 1313v127h578q330 0 526 -191.5t196 -527.5q0 -340 -196.5 -530.5t-525.5 -190.5h-320q-66 0 -95.5 29.5t-29.5 95.5v1188h-133zM362 172q0 -45 46 -45h241q270 0 429 154.5t159 439.5q0 283 -158.5 437.5t-429.5 154.5h-287v-1141z" />
<glyph unicode="E" horiz-adv-x="1142" d="M86 1313v127h823q66 0 95.5 -30t29.5 -95v-144h-135v97q0 45 -45 45h-492v-525h541v-126h-541v-490q0 -45 46 -45h505q45 0 45 45v96h134v-143q0 -66 -30 -95.5t-95 -29.5h-623q-66 0 -95.5 29.5t-29.5 95.5v1188h-133z" />
<glyph unicode="F" horiz-adv-x="1021" d="M86 1313v127h766q66 0 94.5 -30t28.5 -95v-144h-133v97q0 45 -45 45h-435v-541h523v-127h-523v-645h-143v1313h-133z" />
<glyph unicode="G" horiz-adv-x="1495" d="M80 723q0 311 207 526t512 215q285 0 475 -151l29 -25l-84 -106q-18 16 -52 40.5t-143 65.5t-223 41q-244 0 -408 -173t-164 -433q0 -264 162 -438t408 -174q80 0 155.5 21.5t128 52t92 62.5t58.5 52l20 23v178q0 45 -45 45h-88v127h144q66 0 95.5 -30t29.5 -95v-547 h-132v109l3 61h-5q-6 -8 -19 -21.5t-58 -46t-96.5 -58.5t-132.5 -47.5t-165 -21.5q-297 0 -500.5 213t-203.5 535z" />
<glyph unicode="H" horiz-adv-x="1550" d="M86 1313v127h152q66 0 95 -30t29 -95v-531h828v531q0 66 28.5 95.5t94.5 29.5h153v-127h-88q-45 0 -45 -45v-1268h-143v657h-828v-657h-143v1268q0 45 -45 45h-88z" />
<glyph unicode="I" horiz-adv-x="600" d="M94 0v127h135v1186h-135v127h412v-127h-137v-1186h137v-127h-412z" />
<glyph unicode="J" horiz-adv-x="1034" d="M49 403v58h144v-49q0 -158 76.5 -229.5t187.5 -71.5q109 0 184.5 71.5t75.5 225.5v860q0 45 -45 45h-357v127h420q66 0 95.5 -30t29.5 -95v-912q0 -217 -118.5 -322.5t-286.5 -105.5t-287 106.5t-119 321.5z" />
<glyph unicode="K" horiz-adv-x="1208" d="M86 1313v127h152q66 0 95 -30t29 -95v-500h173q90 0 120 51l349 574h163l-370 -604q-37 -59 -74 -80v-4q35 -12 70 -82l249 -496q14 -31 37 -39t68 -8h41v-127h-76q-90 0 -127 19.5t-72 89.5l-262 526q-25 53 -131 53h-158v-688h-143v1268q0 45 -45 45h-88z" />
<glyph unicode="L" horiz-adv-x="1085" d="M86 1313v127h152q66 0 95 -30t29 -95v-1143q0 -45 46 -45h477q45 0 45 45v96h135v-143q0 -66 -29.5 -95.5t-95.5 -29.5h-596q-66 0 -95.5 29.5t-29.5 95.5v1143q0 45 -45 45h-88z" />
<glyph unicode="M" horiz-adv-x="1730" d="M45 0v127h76q43 0 45 45l100 1268h146l381 -838l71 -170h4q37 96 70 170l381 838h145l101 -1268q2 -45 45 -45h78v-127h-140q-66 0 -93.5 28.5t-31.5 96.5l-67 874l-6 201h-4q-39 -127 -74 -201l-342 -731h-129l-340 731l-76 205h-4q0 -127 -6 -205l-68 -874 q-4 -68 -31.5 -96.5t-93.5 -28.5h-137z" />
<glyph unicode="N" horiz-adv-x="1556" d="M86 0v127h88q45 0 45 45v1268h131l735 -1026l117 -189h4q-10 113 -10 189v901q0 66 29.5 95.5t95.5 29.5h152v-127h-89q-45 0 -45 -45v-1268h-131l-735 1026l-119 186h-4q12 -111 12 -186v-901q0 -66 -29.5 -95.5t-94.5 -29.5h-152z" />
<glyph unicode="O" horiz-adv-x="1619" d="M78 729q0 309 213 522t520 213t520 -213t213 -522q0 -315 -214 -534.5t-519 -219.5q-307 0 -520 219.5t-213 534.5zM227 729q0 -260 170 -439t414 -179q242 0 413 179t171 439q0 254 -170 427t-414 173t-414 -173t-170 -427z" />
<glyph unicode="P" horiz-adv-x="1185" d="M86 1313v127h608q195 0 320 -119t125 -315q0 -199 -125 -320t-320 -121h-332v-565h-143v1313h-133zM362 692h314q143 0 229 84t86 230q0 143 -85 225t-228 82h-316v-621z" />
<glyph unicode="Q" horiz-adv-x="1619" d="M78 729q0 309 212 522t517 213q311 0 524 -213t213 -522q0 -283 -180 -496l176 -176l-88 -92l-176 178q-197 -168 -469 -168q-305 0 -517 219.5t-212 534.5zM227 729q0 -260 168 -439t412 -179q205 0 356 120l13 11l-172 174l88 92l170 -176q133 170 133 397 q0 254 -169 426t-419 172q-246 0 -413 -172t-167 -426z" />
<glyph unicode="R" horiz-adv-x="1239" d="M86 1313v127h610q182 0 298 -111.5t116 -298.5q0 -158 -82 -259t-197 -126v-4q29 -16 50 -57l206 -410q14 -31 37 -39t66 -8h29v-127h-64q-90 0 -127 19.5t-72 89.5l-206 411q-29 55 -56.5 70.5t-89.5 15.5h-242v-606h-143v1313h-133zM362 733h320q129 0 204 79t75 214 q0 133 -75 210t-202 77h-322v-580z" />
<glyph unicode="S" horiz-adv-x="1060" d="M76 180l88 105q6 -6 17.5 -18.5t48 -43t77.5 -53.5t103.5 -42t126.5 -19q121 0 202.5 71.5t81.5 184.5q0 98 -72.5 167.5t-177 116.5t-210 97.5t-178 138.5t-72.5 211q0 154 122.5 261t317.5 107q82 0 165 -20.5t153.5 -79.5t70.5 -147v-103h-135v68q0 63 -75 106 t-177 43q-135 0 -215 -67.5t-80 -163.5q0 -59 30.5 -107.5t81 -80t114 -64.5t130 -59.5t130 -65.5t113.5 -83t81 -112.5t31 -154.5q0 -168 -120 -283t-317 -115q-82 0 -159.5 21.5t-128.5 51.5t-91 59.5t-59 52.5z" />
<glyph unicode="T" horiz-adv-x="1269" d="M31 1171v152q0 66 25.5 91.5t90.5 25.5h975q66 0 91.5 -25.5t25.5 -91.5v-152h-133v97q0 45 -45 45h-354v-1313h-144v1313h-356q-45 0 -45 -45v-97h-131z" />
<glyph unicode="U" horiz-adv-x="1468" d="M70 1313v127h151q66 0 95.5 -30t29.5 -95v-815q0 -180 105.5 -284.5t281.5 -104.5q178 0 283.5 105.5t105.5 287.5v811q0 66 30 95.5t95 29.5h152v-127h-88q-45 0 -45 -45v-774q0 -233 -146.5 -376t-384 -143t-385 142.5t-147.5 376.5v774q0 45 -45 45h-88z" />
<glyph unicode="V" horiz-adv-x="1337" d="M25 1313v127h63q78 0 109.5 -22.5t58.5 -96.5l354 -969l56 -186h4q29 113 55 186l354 969q27 74 59.5 96.5t110.5 22.5h62v-127h-19q-57 0 -73 -45l-474 -1268h-153l-473 1268q-16 45 -74 45h-20z" />
<glyph unicode="W" horiz-adv-x="1935" d="M35 1313v127h63q82 0 119 -23.5t55 -95.5l250 -993l31 -154h4q18 80 39 154l317 1106h142l288 -1106l33 -154h4q14 80 33 154l250 993q18 72 55 95.5t119 23.5h64v-127h-23q-63 0 -76 -45l-332 -1268h-170l-268 1001l-47 213h-4q-25 -119 -51 -210l-295 -1004h-170 l-330 1268q-12 45 -76 45h-24z" />
<glyph unicode="X" horiz-adv-x="1167" d="M31 0l458 752l-311 508q-33 53 -102 53h-43v127h76q78 0 116.5 -22.5t81.5 -92.5l185 -309l92 -164h4q43 90 88 164l184 309q43 70 82 92.5t117 22.5h76v-127h-43q-70 0 -103 -53l-313 -508l461 -752h-164l-299 496l-92 157h-4q-41 -86 -86 -159l-297 -494h-164z" />
<glyph unicode="Y" horiz-adv-x="1212" d="M20 1313v127h56q76 0 113.5 -20.5t82.5 -94.5l244 -407l88 -162h4q43 86 88 162l244 407q45 74 83 94.5t114 20.5h55v-127h-33q-63 0 -94 -53l-387 -633v-627h-143v627l-385 633q-33 53 -97 53h-33z" />
<glyph unicode="Z" horiz-adv-x="1177" d="M39 0v100l772 1082q25 33 50.5 65.5t39.5 48.5l14 17v4q-35 -4 -104 -4h-573q-45 0 -45 -45v-97h-134v144q0 66 30 95.5t95 29.5h908v-101l-770 -1081q-25 -33 -51.5 -65.5t-41.5 -49.5l-14 -16v-4q35 4 107 4h620q45 0 45 45v96h133v-143q0 -66 -29.5 -95.5t-95.5 -29.5 h-956z" />
<glyph unicode="[" horiz-adv-x="620" d="M207 -70v1440q0 66 29.5 95.5t95.5 29.5h151v-115h-102q-45 0 -45 -45v-1370q0 -45 45 -45h102v-115h-151q-66 0 -95.5 29.5t-29.5 95.5z" />
<glyph unicode="\" horiz-adv-x="649" d="M10 1520h131l518 -1606h-129z" />
<glyph unicode="]" horiz-adv-x="620" d="M137 -80h103q45 0 45 45v1370q0 45 -45 45h-103v115h152q66 0 95.5 -29.5t29.5 -95.5v-1440q0 -66 -30 -95.5t-95 -29.5h-152v115z" />
<glyph unicode="^" d="M150 512l405 928h96l406 -928h-133l-320 758l-319 -758h-135z" />
<glyph unicode="_" horiz-adv-x="1077" d="M10 0h1057v-119h-1057v119z" />
<glyph unicode="`" horiz-adv-x="737" d="M190 1784h156l143 -244h-120z" />
<glyph unicode="a" horiz-adv-x="1083" d="M82 281q0 354 631 354h57v12q0 160 -61.5 225.5t-204.5 65.5q-63 0 -132 -20.5t-69 -69.5v-66h-133v99q0 49 39 87t97.5 55t108.5 24.5t91 7.5q227 0 315 -104.5t88 -291.5v-493q0 -45 45 -45h86v-121h-141q-66 0 -94.5 29.5t-28.5 93.5l2 76h-4q2 0 -9 -22.5t-37 -56.5 t-62.5 -67t-99 -55.5t-134.5 -22.5q-141 0 -245.5 80.5t-104.5 225.5zM225 289q0 -78 60.5 -136.5t169.5 -58.5q139 0 227 119t88 264v47h-59q-55 0 -93 -2t-102.5 -8t-109 -21.5t-89.5 -40t-68.5 -66.5t-23.5 -97z" />
<glyph unicode="b" horiz-adv-x="1196" d="M41 1319v121h145q66 0 95.5 -30t29.5 -95v-373l-4 -84h4q4 8 11.5 21.5t36 47.5t65.5 59.5t100.5 47t137.5 21.5q205 0 326.5 -149.5t121.5 -391.5t-130 -390.5t-335 -148.5q-203 0 -315 162l-23 37h-4q4 -35 4 -84v-90h-135v1274q0 45 -45 45h-86zM307 512 q0 -168 86 -291t242 -123q141 0 236.5 113t95.5 303q0 186 -91.5 300t-234.5 114q-141 0 -237.5 -104.5t-96.5 -311.5z" />
<glyph unicode="c" horiz-adv-x="1081" d="M82 514q0 236 155.5 388.5t387.5 152.5q49 0 107.5 -11.5t118.5 -34t100 -68.5t40 -105v-93h-131v60q0 59 -79 93t-156 34q-170 0 -285 -116t-115 -300t118 -298t286 -114q186 0 317 131l15 15l65 -105q-6 -6 -16.5 -17t-49 -41t-81.5 -51.5t-113 -40t-143 -18.5 q-233 0 -387 150.5t-154 388.5z" />
<glyph unicode="d" horiz-adv-x="1204" d="M86 516q0 242 129 390.5t334 148.5q207 0 315 -158l21 -35h4q-4 35 -4 78v334q0 45 -45 45h-86v121h145q66 0 95.5 -30t29.5 -95v-1149q0 -45 45 -45h86v-121h-143q-123 0 -123 115l4 65h-4l-11 -22q-7 -14 -36 -49t-66 -62t-101.5 -49.5t-139.5 -22.5q-205 0 -327 149.5 t-122 391.5zM229 516.5q0 -188.5 90.5 -302.5t235.5 -114q141 0 237.5 104.5t96.5 311.5q0 170 -86 292t-242 122q-141 0 -236.5 -112.5t-95.5 -301z" />
<glyph unicode="e" horiz-adv-x="1122" d="M82 514q0 246 146.5 393.5t361.5 147.5q205 0 318.5 -136.5t113.5 -338.5l-4 -70h-791q2 -188 118 -299t282 -111q170 0 299 117l10 10l68 -104q-16 -16 -48 -41t-131.5 -66t-203.5 -41q-231 0 -385 151.5t-154 387.5zM233 621h646q-6 154 -88 235.5t-203 81.5 q-133 0 -231.5 -83.5t-123.5 -233.5z" />
<glyph unicode="f" horiz-adv-x="624" d="M51 913v117h129v37q0 119 38 202t98.5 118.5t112.5 49t106 13.5l63 -4v-125q-18 4 -49 4q-37 0 -70 -9t-72.5 -32.5t-63.5 -80t-24 -136.5v-37h263v-117h-263v-913h-139v913h-129z" />
<glyph unicode="g" horiz-adv-x="1185" d="M86 534.5q0 233.5 121 377t325 143.5q78 0 141.5 -18.5t99.5 -44t60.5 -51.5t32.5 -44l8 -18h5v39q0 113 116 112h144v-121h-84q-45 0 -45 -45v-839q0 -229 -142.5 -342t-353.5 -113q-176 0 -336 82l53 117q127 -72 279 -72q162 0 261 80t99 243v91l2 73h-4 q-96 -178 -323 -178q-207 0 -333 147.5t-126 381zM229 536.5q0 -184.5 92.5 -295t243.5 -110.5q137 0 222 95.5t85 308.5q0 393 -325 393q-150 0 -234 -103.5t-84 -288z" />
<glyph unicode="h" horiz-adv-x="1239" d="M41 1319v121h145q66 0 95.5 -29t29.5 -92v-436l-4 -84h4q37 92 144.5 174t263.5 82q186 0 266 -100.5t80 -299.5v-489q0 -45 45 -45h86v-121h-145q-66 0 -95.5 29.5t-29.5 95.5v493q0 70 -7.5 118t-30 94.5t-69.5 70t-119 23.5q-131 0 -234.5 -82t-137.5 -211 q-16 -55 -17 -137v-494h-139v1274q0 45 -45 45h-86z" />
<glyph unicode="i" horiz-adv-x="514" d="M57 909v121h146q66 0 95.5 -29.5t29.5 -95.5v-739q0 -45 45 -45h86v-121h-146q-66 0 -95.5 29.5t-29.5 95.5v739q0 45 -45 45h-86zM184 1264v176h135v-176h-135z" />
<glyph unicode="j" horiz-adv-x="548" d="M-43 -295q18 -2 45 -2q37 0 72 9t74.5 34t63.5 82t24 139v897q0 45 -46 45h-86v121h146q66 0 95.5 -29.5t29.5 -95.5v-944q0 -121 -38 -203t-99.5 -117.5t-113.5 -49t-108 -13.5l-59 6v121zM233 1264v176h134v-176h-134z" />
<glyph unicode="k" horiz-adv-x="1019" d="M41 1319v121h145q68 0 96.5 -27t28.5 -92v-684h107q78 0 117 49l264 344h170l-297 -377q-23 -29 -42.5 -47t-27.5 -22l-8 -4v-5q31 -14 63 -75l187 -334q14 -27 33.5 -36t60.5 -9h55v-121h-96q-78 0 -110.5 19.5t-67.5 82.5l-205 369q-25 45 -108 45h-95v-516h-139v1274 q0 45 -45 45h-86z" />
<glyph unicode="l" horiz-adv-x="501" d="M45 1319v121h145q66 0 95.5 -30t29.5 -95v-1149q0 -45 45 -45h86v-121h-145q-66 0 -95.5 29.5t-29.5 95.5v1149q0 45 -45 45h-86z" />
<glyph unicode="m" horiz-adv-x="1906" d="M47 909v121h143q125 0 125 -115v-47l-4 -73h4q39 106 146.5 183t226.5 77q272 0 320 -258h4q43 109 147.5 183.5t231.5 74.5q182 0 262 -100.5t80 -299.5v-489q0 -45 45 -45h86v-121h-146q-66 0 -95.5 29.5t-29.5 95.5v496q0 145 -47 226t-176 81q-113 0 -203 -86 t-123 -205q-18 -57 -18 -150v-487h-139v621q0 68 -7.5 114.5t-28 95t-66.5 73t-115 24.5q-121 0 -211 -88t-125 -215q-16 -57 -17 -138v-487h-139v864q0 45 -45 45h-86z" />
<glyph unicode="n" horiz-adv-x="1245" d="M47 909v121h143q125 0 125 -115v-47l-4 -73h4q37 94 142.5 177t267.5 83q186 0 266 -100.5t80 -299.5v-489q0 -45 45 -45h86v-121h-145q-66 0 -95.5 29.5t-29.5 95.5v493q0 145 -44 225.5t-179 80.5q-131 0 -235.5 -81t-139.5 -210q-16 -57 -17 -139v-494h-139v864 q0 45 -45 45h-86z" />
<glyph unicode="o" horiz-adv-x="1251" d="M82 520q0 227 158.5 381t384.5 154q227 0 385.5 -153.5t158.5 -381.5q0 -231 -158.5 -388t-383.5 -157q-227 0 -386 157t-159 388zM225 520q0 -178 117 -299t285 -121q166 0 282.5 121t116.5 299q0 174 -116.5 291t-282.5 117q-168 0 -285 -117t-117 -291z" />
<glyph unicode="p" horiz-adv-x="1202" d="M47 909v121h141q123 0 123 -108l-2 -70h4q4 8 11.5 21.5t36 49t64.5 62.5t101.5 48.5t141.5 21.5q205 0 326.5 -149.5t121.5 -391.5t-129 -390.5t-332 -148.5q-70 0 -131 20.5t-97 49.5t-62.5 56.5t-36.5 48.5l-11 20h-4q4 -37 4 -90v-490h-139v1274q0 45 -45 45h-86z M313 512q0 -168 87 -291t241 -123q141 0 236.5 113t95.5 303q0 188 -90 301t-236 113q-141 0 -237.5 -104.5t-96.5 -311.5z" />
<glyph unicode="q" horiz-adv-x="1204" d="M88 516q0 242 129 390.5t334 148.5q70 0 131 -20.5t98 -50.5t63.5 -58.5t37.5 -48.5l10 -21h4q-2 29 -2 68q0 106 123 106h141v-121h-86q-45 0 -45 -45v-1274h-139v494l4 90h-4q-4 -8 -11.5 -21.5t-36 -47t-65.5 -60.5t-100.5 -48.5t-136.5 -21.5q-205 0 -327 149.5 t-122 391.5zM229 516.5q0 -188.5 91.5 -302.5t236.5 -114q141 0 237.5 104.5t96.5 311.5q0 170 -86 292t-242 122q-141 0 -237.5 -112.5t-96.5 -301z" />
<glyph unicode="r" horiz-adv-x="741" d="M47 909v121h143q125 0 125 -117v-69l-4 -78h4q39 123 124 198.5t202 75.5l55 -6v-137q-25 4 -51 4q-106 0 -185 -73.5t-114 -192.5q-29 -92 -29 -201v-434h-139v864q0 45 -45 45h-86z" />
<glyph unicode="s" horiz-adv-x="901" d="M59 156l80 96q4 -6 13.5 -16.5t40 -38t64.5 -48t88 -37t112 -16.5q92 0 154.5 43t62.5 121q0 61 -59.5 106.5t-144.5 78t-170 69.5t-144.5 103.5t-59.5 158.5q0 135 102.5 207t264.5 72q45 0 94 -9.5t100.5 -29t85 -58t33.5 -90.5v-88h-131v49q0 51 -57.5 78t-120.5 27 q-229 0 -229 -150q0 -63 59 -108t144 -77t170 -68.5t144.5 -104.5t59.5 -162q0 -127 -102.5 -208t-257.5 -81q-227 0 -373 154z" />
<glyph unicode="t" horiz-adv-x="686" d="M55 913v117h138v285h137v-285h258v-117h-258v-524q0 -70 17.5 -121t42 -79.5t57 -45t59 -21.5t55.5 -5l47 4v-125q-25 -4 -59 -4q-43 0 -84 6t-93.5 29.5t-90 62.5t-64.5 112.5t-27 172.5v538h-135z" />
<glyph unicode="u" horiz-adv-x="1234" d="M43 909v121h145q66 0 95.5 -28.5t29.5 -92.5v-497q0 -145 45 -225.5t181 -80.5q168 0 273.5 128t105.5 303v493h139v-864q0 -45 45 -45h86v-121h-141q-125 0 -125 115v47l4 74h-4q-39 -94 -144.5 -177.5t-257.5 -83.5q-180 0 -263 98.5t-83 301.5v489q0 45 -45 45h-86z " />
<glyph unicode="v" horiz-adv-x="1060" d="M29 909v121h55q74 0 105.5 -21.5t58.5 -90.5l248 -644l34 -120h5q16 70 34 120l248 644q27 70 58.5 91t103.5 21h53v-121h-18q-55 0 -72 -47l-336 -862h-151l-336 862q-18 47 -72 47h-18z" />
<glyph unicode="w" horiz-adv-x="1708" d="M20 909v121h72q76 0 107.5 -21.5t54.5 -93.5l211 -653l31 -110h4q16 61 32 110l252 764h140l252 -764l32 -110h4q12 59 29 110l213 653q23 72 54.5 93.5t107.5 21.5h72v-121h-29q-55 0 -72 -47l-295 -862h-153l-252 733l-31 111h-4q-14 -59 -33 -111l-250 -733h-155 l-295 862q-16 47 -72 47h-27z" />
<glyph unicode="x" horiz-adv-x="976" d="M37 909v121h76q78 0 111.5 -20.5t80.5 -91.5l148 -230l34 -61h5q18 35 32 61l150 230q47 72 80.5 92t111.5 20h74v-121h-41q-70 0 -96 -41l-223 -331l360 -537h-164l-252 383l-32 57h-5q-16 -29 -34 -57l-252 -383h-162l358 537l-223 329q-31 43 -94 43h-43z" />
<glyph unicode="y" horiz-adv-x="1103" d="M16 -330l66 103q0 -4 18.5 -21.5t57.5 -37t78 -19.5q121 0 190 168l61 141l-362 858q-20 47 -72 47h-20v121h63q70 0 99.5 -21.5t58.5 -90.5l264 -644l37 -110h4q14 59 35 110l254 644q27 70 57.5 91t102.5 21h63v-121h-20q-53 0 -72 -47l-444 -1077 q-41 -100 -118 -157.5t-177 -57.5q-133 0 -220 94z" />
<glyph unicode="z" horiz-adv-x="1021" d="M80 0v90l579 723l82 94v4q-35 -4 -102 -4h-377q-45 0 -45 -45v-80h-131v123q0 66 29.5 95.5t95.5 29.5h715v-92l-578 -721l-86 -94v-4q37 4 105 4h426q45 0 45 45v80h131v-123q0 -66 -30 -95.5t-95 -29.5h-764z" />
<glyph unicode="{" horiz-adv-x="667" d="M68 598v127q6 0 18 3t42 18.5t53.5 38t42 69.5t18.5 107v167q0 96 24.5 168t58 109t80 58.5t78 26.5t64.5 5h31v-115h-19q-27 0 -52.5 -7t-60 -30.5t-55 -79t-20.5 -139.5v-200q0 -55 -16.5 -103.5t-41 -76t-49 -47t-41.5 -25.5l-16 -8v-5q6 -2 17.5 -7t40 -24.5t50 -46 t39 -74.5t17.5 -108v-225q0 -82 21.5 -138t55 -79t59 -31t52.5 -8h19v-115q-12 -2 -31 -2q-33 0 -64.5 5.5t-78 28t-80 59t-58 108.5t-24.5 168v195q0 59 -18.5 105t-43 69.5t-50.5 38t-44 16.5z" />
<glyph unicode="|" horiz-adv-x="583" d="M227 -322v1936h129v-1936h-129z" />
<glyph unicode="}" horiz-adv-x="667" d="M90 -82h21q25 0 50 8t59 31t55.5 79t21.5 138v225q0 59 16.5 107.5t41 75t49 46t40.5 25.5l17 6v5q-6 2 -17.5 7t-40 26.5t-50 48t-39 74.5t-17.5 104v200q0 84 -20.5 139.5t-55.5 79t-59.5 30.5t-50.5 7h-21v115h33q31 0 62.5 -5t77.5 -27.5t80 -58.5t58.5 -107.5 t24.5 -168.5v-167q0 -174 137 -226l37 -10v-127q-6 0 -18.5 -3t-42 -18.5t-53 -38t-42 -68.5t-18.5 -105v-195q0 -96 -24.5 -168t-58.5 -108.5t-80 -59t-77.5 -28t-62.5 -5.5l-33 2v115z" />
<glyph unicode="~" d="M137 428q0 162 69.5 239.5t190.5 77.5q61 0 110.5 -21.5t81.5 -53t61.5 -63.5t68.5 -53.5t86 -21.5q82 0 113.5 63.5t31.5 141.5h121q0 -162 -69.5 -239.5t-190.5 -77.5q-76 0 -134.5 33.5t-89 72.5t-78.5 73t-106 34q-82 0 -113.5 -63.5t-31.5 -141.5h-121z" />
<glyph unicode="&#xa1;" horiz-adv-x="608" d="M223 872v158h158v-158h-158zM231 -410l7 1063h131l6 -1063h-144z" />
<glyph unicode="&#xa2;" horiz-adv-x="1116" d="M113 720.5q0 231.5 108.5 390.5t302.5 181v228h117v-228q248 -29 367 -303l-131 -49q-94 221 -287 221q-162 0 -247 -123t-85 -317q0 -197 84 -318.5t248 -121.5q193 0 287 221l131 -51q-125 -281 -367 -304v-227h-117v227q-195 23 -303 182.5t-108 391z" />
<glyph unicode="&#xa3;" horiz-adv-x="1191" d="M111 0v127h129v541h-93v112h93v305q0 162 119.5 270.5t302.5 108.5q178 0 313 -110l8 -6l-88 -103q-98 86 -233 86q-129 0 -204 -72.5t-75 -181.5v-297h391v-112h-391v-541h539q45 0 45 45v96h133v-143q0 -66 -30 -95.5t-95 -29.5h-864z" />
<glyph unicode="&#xa5;" horiz-adv-x="1243" d="M35 1313v127h49q78 0 119 -21.5t84 -93.5l243 -407l88 -160h5q43 84 88 160l245 407q41 72 83 93.5t120 21.5h47v-127h-24q-72 0 -99 -45l-266 -439v-4h205v-104h-272l-56 -94v-84h328v-107h-328v-436h-143v436h-332v107h332v84l-59 94h-281v104h215v4l-268 439 q-27 45 -99 45h-24z" />
<glyph unicode="&#xa7;" horiz-adv-x="849" d="M123 -41l72 98q72 -61 168 -61t159.5 60.5t63.5 162.5q0 35 -8 66l-134 878h123l140 -889q8 -53 8 -71q0 -143 -98.5 -236.5t-256.5 -93.5q-137 2 -237 86zM150 1135q0 143 97 236t255 93q137 -2 237 -86l-71 -96q-70 59 -166 59t-161 -58t-65 -161q0 -33 9 -63l135 -885 h-123l-139 889q-8 33 -8 72z" />
<glyph unicode="&#xa8;" horiz-adv-x="1009" d="M322 1608v176h120v-176h-120zM629 1608v176h121v-176h-121z" />
<glyph unicode="&#xa9;" horiz-adv-x="1624" d="M84 721q0 309 212 526t511 217q305 0 519 -217t214 -526q0 -313 -213 -529.5t-520 -216.5q-301 0 -512 217.5t-211 528.5zM205 721q0 -268 174 -451.5t428 -183.5q260 0 437 183.5t177 451.5q0 266 -177 449.5t-437 183.5q-254 0 -428 -183.5t-174 -449.5zM406 717 q0 172 114.5 297t306.5 125q63 0 121 -19.5t94.5 -47.5t65.5 -56.5t41 -48.5l12 -19l-94 -63l-10 15q-6 9 -28.5 33.5t-48.5 43t-66 34t-83 15.5q-141 0 -223 -90t-82 -217t81 -217t224 -90q135 0 226 127l10 14l94 -64q-4 -8 -13 -20t-40 -45t-66.5 -58.5t-93 -46 t-121.5 -20.5q-195 0 -308 124t-113 294z" />
<glyph unicode="&#xaa;" horiz-adv-x="847" d="M119 541v96h620v-96h-620zM123 979q0 225 389 225h27q-2 86 -35 122t-111 36q-106 0 -106 -41v-49h-109v80q0 41 45 67.5t89 33.5t83 7q143 0 199.5 -66.5t56.5 -185.5v-290q0 -18 19 -19h59v-104h-96q-84 0 -86 79v25h-4q-6 -12 -18.5 -31.5t-62.5 -52.5t-114 -33 q-92 0 -158.5 53.5t-66.5 143.5zM240 985q0 -43 32.5 -73.5t89.5 -30.5q80 0 127.5 68.5t51.5 164.5h-25q-276 0 -276 -129z" />
<glyph unicode="&#xab;" horiz-adv-x="1069" d="M78 578l336 421h149l-336 -421l336 -420h-149zM444 578l336 421h152l-336 -421l336 -420h-152z" />
<glyph unicode="&#xac;" d="M143 700v119h955v-495h-125v376h-830z" />
<glyph unicode="&#xad;" horiz-adv-x="884" d="M152 518v127h581v-127h-581z" />
<glyph unicode="&#xae;" horiz-adv-x="1624" d="M84 721q0 309 212 526t511 217q305 0 519 -217t214 -526q0 -313 -213 -529.5t-520 -216.5q-301 0 -512 217.5t-211 528.5zM205 721q0 -268 174 -451.5t428 -183.5q260 0 437 183.5t177 451.5q0 266 -177 449.5t-437 183.5q-254 0 -428 -183.5t-174 -449.5zM492 1024v96 h358q106 0 173 -65.5t67 -171.5q0 -84 -44.5 -140.5t-105.5 -70.5v-4q23 -8 41 -43l92 -185q12 -27 55 -26h21v-92h-59q-47 0 -71 11t-44 50l-111 217q-25 45 -73 45h-111v-323h-115v702h-73zM680 735h149q66 0 104 39t38 109q0 68 -38 104.5t-104 36.5h-149v-289z" />
<glyph unicode="&#xaf;" horiz-adv-x="944" d="M229 1608v110h504v-110h-504z" />
<glyph unicode="&#x2c9;" horiz-adv-x="944" d="M229 1608v110h504v-110h-504z" />
<glyph unicode="&#xb0;" horiz-adv-x="784" d="M104 1178q0 117 84 200.5t203 83.5t204 -84t85 -200q0 -119 -84 -202t-205 -83q-119 0 -203 83t-84 202zM227 1178q0 -72 47.5 -121t117 -49t118.5 49t49 121q0 70 -49 120t-118.5 50t-117 -50t-47.5 -120z" />
<glyph unicode="&#xb1;" d="M86 522v119h473v522h125v-522h471v-119h-471v-522h-125v522h-473zM123 -213h995v-119h-995v119z" />
<glyph unicode="&#xb2;" horiz-adv-x="837" d="M104 645q0 63 20.5 113.5t64.5 91.5t77 62.5t97 58.5q66 37 100.5 60.5t67 68.5t32.5 98q0 63 -44 105.5t-118 42.5q-57 0 -98 -25t-41 -57v-54h-110v80q0 80 82.5 123t166.5 43q131 0 206 -72.5t75 -185.5q0 -61 -20.5 -109.5t-68.5 -89.5t-77 -59t-96.5 -57t-100 -61.5 t-65.5 -66.5t-33 -93q0 -12 19 -13h358q12 0 12 15v71h111v-102q0 -47 -21.5 -68.5t-68.5 -21.5h-434q-51 0 -72 22.5t-21 79.5z" />
<glyph unicode="&#xb3;" horiz-adv-x="837" d="M102 674l82 80q10 -12 29.5 -32t78 -52.5t116.5 -32.5q72 0 126 50t54 126t-56.5 121t-136.5 45h-71l-21 70l197 239l47 49v4q-35 -6 -74 -6h-194q-20 0 -21 -22v-58h-111v88q0 53 20.5 75t76.5 22h452v-80l-241 -283q96 -8 174 -78.5t78 -187.5q0 -123 -89.5 -204 t-211.5 -81q-80 0 -156 37t-111 74z" />
<glyph unicode="&#xb4;" horiz-adv-x="759" d="M236 1540l143 244h156l-179 -244h-120z" />
<glyph unicode="&#xb5;" horiz-adv-x="1234" d="M43 909v121h145q66 0 95.5 -28.5t29.5 -92.5v-497q0 -145 45 -225.5t181 -80.5q168 0 273.5 128t105.5 303v493h139v-864q0 -45 45 -45h86v-121h-141q-125 0 -125 115v47l4 74h-6q-4 -10 -12.5 -28t-42.5 -63t-74.5 -79.5t-113.5 -62.5t-157 -28q-76 0 -133 21.5 t-76 44.5l-18 20h-4q14 -104 14 -155v-316h-129v1274q0 45 -45 45h-86z" />
<glyph unicode="&#x3bc;" horiz-adv-x="1234" d="M43 909v121h145q66 0 95.5 -28.5t29.5 -92.5v-497q0 -145 45 -225.5t181 -80.5q168 0 273.5 128t105.5 303v493h139v-864q0 -45 45 -45h86v-121h-141q-125 0 -125 115v47l4 74h-6q-4 -10 -12.5 -28t-42.5 -63t-74.5 -79.5t-113.5 -62.5t-157 -28q-76 0 -133 21.5 t-76 44.5l-18 20h-4q14 -104 14 -155v-316h-129v1274q0 45 -45 45h-86z" />
<glyph unicode="&#xb6;" horiz-adv-x="1175" d="M88 968.5q0 198.5 143.5 335t343.5 136.5h490v-127h-371v-1415h-116v596q-201 0 -345.5 138t-144.5 336.5zM821 -102v1292h119v-1292h-119z" />
<glyph unicode="&#xb7;" horiz-adv-x="440" d="M141 508v164h158v-164h-158z" />
<glyph unicode="&#x2219;" horiz-adv-x="440" d="M141 508v164h158v-164h-158z" />
<glyph unicode="&#xb8;" horiz-adv-x="845" d="M227 -311q39 -12 86 -13q104 0 104.5 70t-116.5 70l-31 -2l54 227l82 -14v-17l-25 -123q66 -10 105.5 -48t39.5 -97q0 -82 -57 -122t-141 -40l-101 10v99z" />
<glyph unicode="&#xb9;" horiz-adv-x="837" d="M162 1231l209 209h104v-791h191v-106h-502v106h192v563l2 70h-4q-10 -20 -26 -37l-92 -90z" />
<glyph unicode="&#xba;" horiz-adv-x="933" d="M125 1126q0 141 100.5 238.5t241.5 97.5t241.5 -97t100.5 -239q0 -145 -99.5 -243.5t-242.5 -98.5t-242.5 98.5t-99.5 243.5zM160 541v96h620v-96h-620zM238 1126q0 -102 66.5 -169.5t162.5 -67.5t162.5 67.5t66.5 169.5q0 100 -66.5 167t-162.5 67t-162.5 -67 t-66.5 -167z" />
<glyph unicode="&#xbb;" horiz-adv-x="1069" d="M135 158l336 420l-336 421h152l336 -421l-336 -420h-152zM504 158l336 420l-336 421h151l336 -421l-336 -420h-151z" />
<glyph unicode="&#xbc;" horiz-adv-x="1822" d="M158 1231l209 209h102v-791h188v-106h-497v106h192v563l2 70h-4q-10 -20 -26 -37l-93 -90zM551 0l608 1440h127l-606 -1440h-129zM1016 240v75l426 582h123v-551h137v-106h-137v-240h-117v240h-432zM1155 344q29 2 43 2h252v313l2 80h-4q-14 -29 -33 -55l-231 -305 l-29 -33v-2z" />
<glyph unicode="&#xbd;" horiz-adv-x="1822" d="M158 1231l209 209h102v-791h188v-106h-497v106h192v563l2 70h-4q-10 -20 -26 -37l-93 -90zM528 0l609 1440h127l-607 -1440h-129zM1063 102q0 63 20.5 114.5t64.5 91.5t78 62.5t95 57.5q66 37 100.5 60.5t67.5 68.5t33 98q0 63 -44 105.5t-118 42.5q-57 0 -98 -24.5 t-41 -57.5v-51h-111v78q0 82 83 123.5t167 41.5q131 0 205.5 -72.5t74.5 -185.5q0 -61 -20.5 -109t-67.5 -88t-77.5 -60.5t-96.5 -57.5q-49 -29 -74.5 -46.5t-59.5 -46t-48 -59t-14 -67.5q0 -14 16 -15h358q12 0 13 15v72h110v-103q0 -90 -90 -90h-434q-51 0 -71.5 22.5 t-20.5 79.5z" />
<glyph unicode="&#xbe;" horiz-adv-x="1822" d="M127 674l82 80q10 -12 29.5 -32t78 -52.5t115.5 -32.5q72 0 126 50t54 126t-56 121t-136 45h-72l-20 70l196 239l47 49v4q-35 -6 -73 -6h-195q-20 0 -20 -22v-58h-111v88q0 53 20.5 75t75.5 22h453v-80l-242 -283q96 -8 174 -78.5t78 -187.5q0 -123 -89 -204t-212 -81 q-80 0 -155.5 37t-110.5 74zM549 0l608 1440h127l-606 -1440h-129zM1016 240v75l426 582h123v-551h137v-106h-137v-240h-117v240h-432zM1155 344q29 2 43 2h252v313l2 80h-4q-14 -29 -33 -55l-231 -305l-29 -33v-2z" />
<glyph unicode="&#xbf;" horiz-adv-x="882" d="M63 -68q0 94 38 169t91.5 126.5t107.5 98.5t92 109.5t38 135.5v82h137v-88q0 -90 -36.5 -163.5t-89 -124t-104.5 -98.5t-89 -109.5t-37 -130.5q0 -100 75.5 -168t192.5 -68q61 0 124 21.5t93 42.5l31 22l76 -102q-14 -12 -41 -32t-113 -52.5t-176 -32.5q-176 0 -293 102 t-117 260zM420 872v158h158v-158h-158z" />
<glyph unicode="&#xc0;" horiz-adv-x="1345" d="M25 0v127h26q57 0 74 45l471 1268h154l471 -1268q16 -45 73 -45h25v-127h-66q-78 0 -110.5 22.5t-59.5 96.5l-125 340h-571l-127 -340q-29 -74 -60.5 -96.5t-107.5 -22.5h-67zM426 584h494l-191 514l-55 186h-4q-31 -119 -56 -186zM434 1784h156l143 -244h-121z" />
<glyph unicode="&#xc1;" horiz-adv-x="1345" d="M25 0v127h26q57 0 74 45l471 1268h154l471 -1268q16 -45 73 -45h25v-127h-66q-78 0 -110.5 22.5t-59.5 96.5l-125 340h-571l-127 -340q-29 -74 -60.5 -96.5t-107.5 -22.5h-67zM426 584h494l-191 514l-55 186h-4q-31 -119 -56 -186zM612 1540l144 244h155l-178 -244h-121z " />
<glyph unicode="&#xc2;" horiz-adv-x="1345" d="M25 0v127h26q57 0 74 45l471 1268h154l471 -1268q16 -45 73 -45h25v-127h-66q-78 0 -110.5 22.5t-59.5 96.5l-125 340h-571l-127 -340q-29 -74 -60.5 -96.5t-107.5 -22.5h-67zM426 584h494l-191 514l-55 186h-4q-31 -119 -56 -186zM432 1540l170 244h143l170 -244h-129 l-110 166h-4l-111 -166h-129z" />
<glyph unicode="&#xc3;" horiz-adv-x="1345" d="M25 0v127h26q57 0 74 45l471 1268h154l471 -1268q16 -45 73 -45h25v-127h-66q-78 0 -110.5 22.5t-59.5 96.5l-125 340h-571l-127 -340q-29 -74 -60.5 -96.5t-107.5 -22.5h-67zM350 1546q0 240 191 240q59 0 103 -37t81 -74t74 -37q82 0 82 142h108q0 -240 -190 -240 q-59 0 -104.5 37t-81 73t-74.5 36q-82 0 -82 -140h-107zM426 584h494l-191 514l-55 186h-4q-31 -119 -56 -186z" />
<glyph unicode="&#xc4;" horiz-adv-x="1345" d="M25 0v127h26q57 0 74 45l471 1268h154l471 -1268q16 -45 73 -45h25v-127h-66q-78 0 -110.5 22.5t-59.5 96.5l-125 340h-571l-127 -340q-29 -74 -60.5 -96.5t-107.5 -22.5h-67zM426 584h494l-191 514l-55 186h-4q-31 -119 -56 -186zM461 1608v176h121v-176h-121zM768 1608 v176h121v-176h-121z" />
<glyph unicode="&#xc5;" horiz-adv-x="1345" d="M25 0v127h26q57 0 74 45l471 1268h154l471 -1268q16 -45 73 -45h25v-127h-66q-78 0 -110.5 22.5t-59.5 96.5l-125 340h-571l-127 -340q-29 -74 -60.5 -96.5t-107.5 -22.5h-67zM426 584h494l-191 514l-55 186h-4q-31 -119 -56 -186zM522 1662.5q0 63.5 44 104.5t107.5 41 t107.5 -41t44 -104.5t-44 -104t-107.5 -40.5t-107.5 40.5t-44 104zM606 1663q0 -29 18.5 -48.5t49.5 -19.5q29 0 48 19.5t19 48.5q0 31 -19.5 50.5t-48 19.5t-48 -19.5t-19.5 -50.5z" />
<glyph unicode="&#xc6;" horiz-adv-x="1685" d="M25 127h18q57 0 74 45l487 1268h848q66 0 95.5 -30t29.5 -95v-144h-135v97q0 45 -45 45h-475v-525h524v-126h-524v-490q0 -27 13 -36t44 -9h477q45 0 45 45v96h135v-143q0 -66 -29.5 -95.5t-95.5 -29.5h-589q-80 0 -112 25.5t-32 99.5v537h-325l-205 -543 q-27 -74 -58.5 -96.5t-109.5 -22.5h-55v127zM500 788h278v525h-82z" />
<glyph unicode="&#xc7;" horiz-adv-x="1421" d="M78 731q0 311 203.5 522t506.5 211q82 0 171.5 -17.5t174.5 -52t139 -96t54 -139.5v-119h-135v80q0 94 -129 151.5t-270 57.5q-242 0 -404 -169t-162 -429t161 -440t405 -180q84 0 162.5 20.5t134 50t97.5 59t62 50.5l21 20l82 -102l-24 -24q-15 -15 -67.5 -55 t-110.5 -69.5t-151.5 -56.5t-191.5 -29l-19 -88q66 -10 105 -48t39 -97q0 -84 -56.5 -123t-140.5 -39l-100 10v99q39 -12 86 -13q102 0 102 70t-116 70l-29 -2l39 166q-285 27 -462 238.5t-177 512.5z" />
<glyph unicode="&#xc8;" horiz-adv-x="1142" d="M86 1313v127h823q66 0 95.5 -30t29.5 -95v-144h-135v97q0 45 -45 45h-492v-525h541v-126h-541v-490q0 -45 46 -45h505q45 0 45 45v96h134v-143q0 -66 -30 -95.5t-95 -29.5h-623q-66 0 -95.5 29.5t-29.5 95.5v1188h-133zM362 1784h156l144 -244h-121z" />
<glyph unicode="&#xc9;" horiz-adv-x="1142" d="M86 1313v127h823q66 0 95.5 -30t29.5 -95v-144h-135v97q0 45 -45 45h-492v-525h541v-126h-541v-490q0 -45 46 -45h505q45 0 45 45v96h134v-143q0 -66 -30 -95.5t-95 -29.5h-623q-66 0 -95.5 29.5t-29.5 95.5v1188h-133zM541 1540l143 244h156l-178 -244h-121z" />
<glyph unicode="&#xca;" horiz-adv-x="1142" d="M86 1313v127h823q66 0 95.5 -30t29.5 -95v-144h-135v97q0 45 -45 45h-492v-525h541v-126h-541v-490q0 -45 46 -45h505q45 0 45 45v96h134v-143q0 -66 -30 -95.5t-95 -29.5h-623q-66 0 -95.5 29.5t-29.5 95.5v1188h-133zM360 1540l170 244h144l170 -244h-129l-111 166h-4 l-111 -166h-129z" />
<glyph unicode="&#xcb;" horiz-adv-x="1142" d="M86 1313v127h823q66 0 95.5 -30t29.5 -95v-144h-135v97q0 45 -45 45h-492v-525h541v-126h-541v-490q0 -45 46 -45h505q45 0 45 45v96h134v-143q0 -66 -30 -95.5t-95 -29.5h-623q-66 0 -95.5 29.5t-29.5 95.5v1188h-133zM389 1608v176h121v-176h-121zM696 1608v176h121 v-176h-121z" />
<glyph unicode="&#xcc;" horiz-adv-x="600" d="M59 1784h156l143 -244h-120zM94 0v127h135v1186h-135v127h412v-127h-137v-1186h137v-127h-412z" />
<glyph unicode="&#xcd;" horiz-adv-x="600" d="M94 0v127h135v1186h-135v127h412v-127h-137v-1186h137v-127h-412zM238 1540l143 244h156l-179 -244h-120z" />
<glyph unicode="&#xce;" horiz-adv-x="600" d="M57 1540l170 244h144l170 -244h-129l-111 166h-4l-111 -166h-129zM94 0v127h135v1186h-135v127h412v-127h-137v-1186h137v-127h-412z" />
<glyph unicode="&#xcf;" horiz-adv-x="600" d="M86 1608v176h121v-176h-121zM94 0v127h135v1186h-135v127h412v-127h-137v-1186h137v-127h-412zM393 1608v176h121v-176h-121z" />
<glyph unicode="&#xd0;" horiz-adv-x="1464" d="M86 1313v127h578q330 0 526 -191.5t196 -527.5q0 -340 -196.5 -530.5t-525.5 -190.5h-320q-66 0 -95.5 29.5t-29.5 95.5v537h-102v122h102v529h-133zM362 172q0 -45 46 -45h241q270 0 429 154.5t159 439.5q0 283 -158.5 437.5t-429.5 154.5h-287v-529h336v-122h-336v-490 z" />
<glyph unicode="&#xd1;" horiz-adv-x="1556" d="M86 0v127h88q45 0 45 45v1268h131l735 -1026l117 -189h4q-10 113 -10 189v901q0 66 29.5 95.5t95.5 29.5h152v-127h-89q-45 0 -45 -45v-1268h-131l-735 1026l-119 186h-4q12 -111 12 -186v-901q0 -66 -29.5 -95.5t-94.5 -29.5h-152zM477 1546q0 240 191 240q59 0 103 -37 t81 -74t74 -37q82 0 82 142h108q0 -240 -190 -240q-59 0 -104.5 37t-81 73t-74.5 36q-82 0 -82 -140h-107z" />
<glyph unicode="&#xd2;" horiz-adv-x="1619" d="M78 729q0 309 213 522t520 213t520 -213t213 -522q0 -315 -214 -534.5t-519 -219.5q-307 0 -520 219.5t-213 534.5zM227 729q0 -260 170 -439t414 -179q242 0 413 179t171 439q0 254 -170 427t-414 173t-414 -173t-170 -427zM565 1784h156l143 -244h-121z" />
<glyph unicode="&#xd3;" horiz-adv-x="1619" d="M78 729q0 309 213 522t520 213t520 -213t213 -522q0 -315 -214 -534.5t-519 -219.5q-307 0 -520 219.5t-213 534.5zM227 729q0 -260 170 -439t414 -179q242 0 413 179t171 439q0 254 -170 427t-414 173t-414 -173t-170 -427zM743 1540l144 244h155l-178 -244h-121z" />
<glyph unicode="&#xd4;" horiz-adv-x="1619" d="M78 729q0 309 213 522t520 213t520 -213t213 -522q0 -315 -214 -534.5t-519 -219.5q-307 0 -520 219.5t-213 534.5zM227 729q0 -260 170 -439t414 -179q242 0 413 179t171 439q0 254 -170 427t-414 173t-414 -173t-170 -427zM563 1540l170 244h144l170 -244h-129 l-111 166h-4l-111 -166h-129z" />
<glyph unicode="&#xd5;" horiz-adv-x="1619" d="M78 729q0 309 213 522t520 213t520 -213t213 -522q0 -315 -214 -534.5t-519 -219.5q-307 0 -520 219.5t-213 534.5zM227 729q0 -260 170 -439t414 -179q242 0 413 179t171 439q0 254 -170 427t-414 173t-414 -173t-170 -427zM481 1546q0 240 191 240q59 0 103 -37t81 -74 t74 -37q82 0 82 142h108q0 -240 -190 -240q-59 0 -104.5 37t-81 73t-74.5 36q-82 0 -82 -140h-107z" />
<glyph unicode="&#xd6;" horiz-adv-x="1619" d="M78 729q0 309 213 522t520 213t520 -213t213 -522q0 -315 -214 -534.5t-519 -219.5q-307 0 -520 219.5t-213 534.5zM227 729q0 -260 170 -439t414 -179q242 0 413 179t171 439q0 254 -170 427t-414 173t-414 -173t-170 -427zM592 1608v176h121v-176h-121zM899 1608v176 h121v-176h-121z" />
<glyph unicode="&#xd7;" d="M98 84l443 498l-443 497l84 84l439 -493l438 493l84 -84l-445 -497l445 -498l-84 -84l-438 494l-439 -494z" />
<glyph unicode="&#xd8;" horiz-adv-x="1626" d="M80 729q0 309 213 522t520 213q209 0 387 -110l98 137l84 -61l-96 -136q260 -223 260 -565q0 -315 -214 -534.5t-519 -219.5q-215 0 -391 115l-98 -139l-86 59l100 142q-121 104 -189.5 254.5t-68.5 322.5zM229 729q0 -283 195 -461l696 973q-143 88 -307 88 q-244 0 -414 -173t-170 -427zM504 203q145 -92 309 -92q244 0 414 179t170 439q0 272 -197 447z" />
<glyph unicode="&#xd9;" horiz-adv-x="1468" d="M70 1313v127h151q66 0 95.5 -30t29.5 -95v-815q0 -180 105.5 -284.5t281.5 -104.5q178 0 283.5 105.5t105.5 287.5v811q0 66 30 95.5t95 29.5h152v-127h-88q-45 0 -45 -45v-774q0 -233 -146.5 -376t-384 -143t-385 142.5t-147.5 376.5v774q0 45 -45 45h-88zM498 1784h155 l144 -244h-121z" />
<glyph unicode="&#xda;" horiz-adv-x="1468" d="M70 1313v127h151q66 0 95.5 -30t29.5 -95v-815q0 -180 105.5 -284.5t281.5 -104.5q178 0 283.5 105.5t105.5 287.5v811q0 66 30 95.5t95 29.5h152v-127h-88q-45 0 -45 -45v-774q0 -233 -146.5 -376t-384 -143t-385 142.5t-147.5 376.5v774q0 45 -45 45h-88zM676 1540 l143 244h156l-178 -244h-121z" />
<glyph unicode="&#xdb;" horiz-adv-x="1468" d="M70 1313v127h151q66 0 95.5 -30t29.5 -95v-815q0 -180 105.5 -284.5t281.5 -104.5q178 0 283.5 105.5t105.5 287.5v811q0 66 30 95.5t95 29.5h152v-127h-88q-45 0 -45 -45v-774q0 -233 -146.5 -376t-384 -143t-385 142.5t-147.5 376.5v774q0 45 -45 45h-88zM496 1540 l170 244h143l170 -244h-129l-111 166h-4l-110 -166h-129z" />
<glyph unicode="&#xdc;" horiz-adv-x="1468" d="M70 1313v127h151q66 0 95.5 -30t29.5 -95v-815q0 -180 105.5 -284.5t281.5 -104.5q178 0 283.5 105.5t105.5 287.5v811q0 66 30 95.5t95 29.5h152v-127h-88q-45 0 -45 -45v-774q0 -233 -146.5 -376t-384 -143t-385 142.5t-147.5 376.5v774q0 45 -45 45h-88zM524 1608v176 h121v-176h-121zM831 1608v176h121v-176h-121z" />
<glyph unicode="&#xdd;" horiz-adv-x="1212" d="M20 1313v127h56q76 0 113.5 -20.5t82.5 -94.5l244 -407l88 -162h4q43 86 88 162l244 407q45 74 83 94.5t114 20.5h55v-127h-33q-63 0 -94 -53l-387 -633v-627h-143v627l-385 633q-33 53 -97 53h-33zM547 1540l143 244h156l-178 -244h-121z" />
<glyph unicode="&#xde;" horiz-adv-x="1196" d="M86 1313v127h152q66 0 95 -30t29 -95v-131h332q195 0 320 -119t125 -317q0 -197 -126 -318t-323 -121h-328v-309h-143v1268q0 45 -45 45h-88zM362 436h314q143 0 229 83t86 228.5t-85 227.5t-228 82h-316v-621z" />
<glyph unicode="&#xdf;" horiz-adv-x="1142" d="M41 0v121h84q45 0 45 45v921q0 174 123 275.5t289 101.5q160 0 259 -90t99 -215q0 -68 -36 -128t-78 -95t-77.5 -79t-35.5 -85q0 -49 62.5 -103.5t137 -100.5t137 -126t62.5 -174q0 -139 -96 -216t-236 -77q-178 0 -309 111l-8 8l51 109q12 -12 34.5 -28.5t90.5 -45.5 t131 -29q86 0 143.5 43t57.5 129q0 68 -62.5 131.5t-138.5 107.5t-138.5 112.5t-62.5 144.5q0 57 36 110.5t78 89.5t78 86t36 103q0 72 -58.5 126t-163.5 54q-106 0 -186 -69.5t-80 -190.5v-952q0 -66 -29.5 -95.5t-95.5 -29.5h-143z" />
<glyph unicode="&#xe0;" horiz-adv-x="1083" d="M82 281q0 354 631 354h57v12q0 160 -61.5 225.5t-204.5 65.5q-63 0 -132 -20.5t-69 -69.5v-66h-133v99q0 49 39 87t97.5 55t108.5 24.5t91 7.5q227 0 315 -104.5t88 -291.5v-493q0 -45 45 -45h86v-121h-141q-66 0 -94.5 29.5t-28.5 93.5l2 76h-4q2 0 -9 -22.5t-37 -56.5 t-62.5 -67t-99 -55.5t-134.5 -22.5q-141 0 -245.5 80.5t-104.5 225.5zM225 289q0 -78 60.5 -136.5t169.5 -58.5q139 0 227 119t88 264v47h-59q-55 0 -93 -2t-102.5 -8t-109 -21.5t-89.5 -40t-68.5 -66.5t-23.5 -97zM293 1440h156l143 -244h-121z" />
<glyph unicode="&#xe1;" horiz-adv-x="1083" d="M82 281q0 354 631 354h57v12q0 160 -61.5 225.5t-204.5 65.5q-63 0 -132 -20.5t-69 -69.5v-66h-133v99q0 49 39 87t97.5 55t108.5 24.5t91 7.5q227 0 315 -104.5t88 -291.5v-493q0 -45 45 -45h86v-121h-141q-66 0 -94.5 29.5t-28.5 93.5l2 76h-4q2 0 -9 -22.5t-37 -56.5 t-62.5 -67t-99 -55.5t-134.5 -22.5q-141 0 -245.5 80.5t-104.5 225.5zM225 289q0 -78 60.5 -136.5t169.5 -58.5q139 0 227 119t88 264v47h-59q-55 0 -93 -2t-102.5 -8t-109 -21.5t-89.5 -40t-68.5 -66.5t-23.5 -97zM471 1196l143 244h156l-178 -244h-121z" />
<glyph unicode="&#xe2;" horiz-adv-x="1083" d="M82 281q0 354 631 354h57v12q0 160 -61.5 225.5t-204.5 65.5q-63 0 -132 -20.5t-69 -69.5v-66h-133v99q0 49 39 87t97.5 55t108.5 24.5t91 7.5q227 0 315 -104.5t88 -291.5v-493q0 -45 45 -45h86v-121h-141q-66 0 -94.5 29.5t-28.5 93.5l2 76h-4q2 0 -9 -22.5t-37 -56.5 t-62.5 -67t-99 -55.5t-134.5 -22.5q-141 0 -245.5 80.5t-104.5 225.5zM225 289q0 -78 60.5 -136.5t169.5 -58.5q139 0 227 119t88 264v47h-59q-55 0 -93 -2t-102.5 -8t-109 -21.5t-89.5 -40t-68.5 -66.5t-23.5 -97zM291 1196l170 244h143l170 -244h-129l-110 166h-5 l-110 -166h-129z" />
<glyph unicode="&#xe3;" horiz-adv-x="1083" d="M82 281q0 354 631 354h57v12q0 160 -61.5 225.5t-204.5 65.5q-63 0 -132 -20.5t-69 -69.5v-66h-133v99q0 49 39 87t97.5 55t108.5 24.5t91 7.5q227 0 315 -104.5t88 -291.5v-493q0 -45 45 -45h86v-121h-141q-66 0 -94.5 29.5t-28.5 93.5l2 76h-4q2 0 -9 -22.5t-37 -56.5 t-62.5 -67t-99 -55.5t-134.5 -22.5q-141 0 -245.5 80.5t-104.5 225.5zM209 1202q0 240 190 240q59 0 103.5 -37t81.5 -74t73 -37q82 0 82 142h109q0 -240 -191 -240q-59 0 -104 37t-81 72.5t-75 35.5q-82 0 -82 -139h-106zM225 289q0 -78 60.5 -136.5t169.5 -58.5 q139 0 227 119t88 264v47h-59q-55 0 -93 -2t-102.5 -8t-109 -21.5t-89.5 -40t-68.5 -66.5t-23.5 -97z" />
<glyph unicode="&#xe4;" horiz-adv-x="1083" d="M82 281q0 354 631 354h57v12q0 160 -61.5 225.5t-204.5 65.5q-63 0 -132 -20.5t-69 -69.5v-66h-133v99q0 49 39 87t97.5 55t108.5 24.5t91 7.5q227 0 315 -104.5t88 -291.5v-493q0 -45 45 -45h86v-121h-141q-66 0 -94.5 29.5t-28.5 93.5l2 76h-4q2 0 -9 -22.5t-37 -56.5 t-62.5 -67t-99 -55.5t-134.5 -22.5q-141 0 -245.5 80.5t-104.5 225.5zM225 289q0 -78 60.5 -136.5t169.5 -58.5q139 0 227 119t88 264v47h-59q-55 0 -93 -2t-102.5 -8t-109 -21.5t-89.5 -40t-68.5 -66.5t-23.5 -97zM319 1264v176h121v-176h-121zM627 1264v176h121v-176h-121 z" />
<glyph unicode="&#xe5;" horiz-adv-x="1083" d="M82 281q0 354 631 354h57v12q0 160 -61.5 225.5t-204.5 65.5q-63 0 -132 -20.5t-69 -69.5v-66h-133v99q0 49 39 87t97.5 55t108.5 24.5t91 7.5q227 0 315 -104.5t88 -291.5v-493q0 -45 45 -45h86v-121h-141q-66 0 -94.5 29.5t-28.5 93.5l2 76h-4q2 0 -9 -22.5t-37 -56.5 t-62.5 -67t-99 -55.5t-134.5 -22.5q-141 0 -245.5 80.5t-104.5 225.5zM225 289q0 -78 60.5 -136.5t169.5 -58.5q139 0 227 119t88 264v47h-59q-55 0 -93 -2t-102.5 -8t-109 -21.5t-89.5 -40t-68.5 -66.5t-23.5 -97zM381 1318.5q0 63.5 44 104.5t107.5 41t107.5 -41 t44 -104.5t-44 -104t-107.5 -40.5t-107.5 40.5t-44 104zM465 1319q0 -29 18.5 -48.5t48.5 -19.5q29 0 48.5 19.5t19.5 48.5q0 31 -19.5 50.5t-48 19.5t-48 -19.5t-19.5 -50.5z" />
<glyph unicode="&#xe6;" horiz-adv-x="1783" d="M82 281q0 70 23.5 124t58.5 89.5t90 61.5t105.5 39t120 20.5t113.5 8.5t107 1h68v22q0 160 -61.5 225.5t-202.5 65.5q-66 0 -133.5 -20.5t-67.5 -69.5v-66h-133v99q0 86 104.5 130t231.5 44q289 0 356 -213h4q127 213 389 213q201 0 312.5 -132t111.5 -317l-4 -92h-772 q4 -197 111.5 -305.5t273.5 -108.5q170 0 301 119l8 8l66 -104q-16 -16 -47 -41t-130.5 -66t-203.5 -41q-158 0 -276.5 76t-176.5 211h-4q-6 -23 -19 -51.5t-46 -72.5t-73 -77.5t-106.5 -59.5t-144.5 -26q-150 0 -252 81.5t-102 224.5zM225 289q0 -80 61.5 -137.5 t170.5 -57.5q139 0 226 120t87 265v35h-121q-82 0 -142.5 -6t-132 -26.5t-110.5 -69.5t-39 -123zM913 625h625q-6 152 -89 231.5t-200 79.5q-131 0 -222 -80.5t-114 -230.5z" />
<glyph unicode="&#xe7;" horiz-adv-x="1081" d="M82 514q0 236 155.5 388.5t387.5 152.5q49 0 107.5 -11.5t118.5 -34t100 -68.5t40 -105v-93h-131v60q0 59 -79 93t-156 34q-170 0 -285 -116t-115 -300t118 -298t286 -114q186 0 317 131l15 15l65 -105q-6 -6 -16.5 -17t-49 -40t-82.5 -51.5t-114 -41t-146 -18.5l-16 -88 q66 -10 104.5 -48t38.5 -97q0 -84 -56 -123t-140 -39l-103 10v99q39 -12 86 -13q104 0 104.5 70t-116.5 70l-31 -2l39 170q-197 29 -321.5 173t-124.5 357z" />
<glyph unicode="&#xe8;" horiz-adv-x="1122" d="M82 514q0 246 146.5 393.5t361.5 147.5q205 0 318.5 -136.5t113.5 -338.5l-4 -70h-791q2 -188 118 -299t282 -111q170 0 299 117l10 10l68 -104q-16 -16 -48 -41t-131.5 -66t-203.5 -41q-231 0 -385 151.5t-154 387.5zM233 621h646q-6 154 -88 235.5t-203 81.5 q-133 0 -231.5 -83.5t-123.5 -233.5zM346 1440h156l143 -244h-121z" />
<glyph unicode="&#xe9;" horiz-adv-x="1122" d="M82 514q0 246 146.5 393.5t361.5 147.5q205 0 318.5 -136.5t113.5 -338.5l-4 -70h-791q2 -188 118 -299t282 -111q170 0 299 117l10 10l68 -104q-16 -16 -48 -41t-131.5 -66t-203.5 -41q-231 0 -385 151.5t-154 387.5zM233 621h646q-6 154 -88 235.5t-203 81.5 q-133 0 -231.5 -83.5t-123.5 -233.5zM524 1196l144 244h155l-178 -244h-121z" />
<glyph unicode="&#xea;" horiz-adv-x="1122" d="M82 514q0 246 146.5 393.5t361.5 147.5q205 0 318.5 -136.5t113.5 -338.5l-4 -70h-791q2 -188 118 -299t282 -111q170 0 299 117l10 10l68 -104q-16 -16 -48 -41t-131.5 -66t-203.5 -41q-231 0 -385 151.5t-154 387.5zM233 621h646q-6 154 -88 235.5t-203 81.5 q-133 0 -231.5 -83.5t-123.5 -233.5zM344 1196l170 244h143l170 -244h-129l-110 166h-4l-111 -166h-129z" />
<glyph unicode="&#xeb;" horiz-adv-x="1122" d="M82 514q0 246 146.5 393.5t361.5 147.5q205 0 318.5 -136.5t113.5 -338.5l-4 -70h-791q2 -188 118 -299t282 -111q170 0 299 117l10 10l68 -104q-16 -16 -48 -41t-131.5 -66t-203.5 -41q-231 0 -385 151.5t-154 387.5zM233 621h646q-6 154 -88 235.5t-203 81.5 q-133 0 -231.5 -83.5t-123.5 -233.5zM373 1264v176h121v-176h-121zM680 1264v176h121v-176h-121z" />
<glyph unicode="&#xec;" horiz-adv-x="516" d="M6 1440h156l141 -244h-121zM59 909v121h146q66 0 95.5 -29.5t29.5 -95.5v-739q0 -45 45 -45h86v-121h-146q-66 0 -95.5 29.5t-29.5 95.5v739q0 45 -45 45h-86z" />
<glyph unicode="&#xed;" horiz-adv-x="516" d="M59 909v121h146q66 0 95.5 -29.5t29.5 -95.5v-739q0 -45 45 -45h86v-121h-146q-66 0 -95.5 29.5t-29.5 95.5v739q0 45 -45 45h-86zM182 1196l144 244h155l-178 -244h-121z" />
<glyph unicode="&#xee;" horiz-adv-x="516" d="M2 1196l172 244h141l172 -244h-129l-110 166h-4l-113 -166h-129zM59 909v121h146q66 0 95.5 -29.5t29.5 -95.5v-739q0 -45 45 -45h86v-121h-146q-66 0 -95.5 29.5t-29.5 95.5v739q0 45 -45 45h-86z" />
<glyph unicode="&#xef;" horiz-adv-x="516" d="M51 1264v176h123v-176h-123zM59 909v121h146q66 0 95.5 -29.5t29.5 -95.5v-739q0 -45 45 -45h86v-121h-146q-66 0 -95.5 29.5t-29.5 95.5v739q0 45 -45 45h-86zM309 1264v176h121v-176h-121z" />
<glyph unicode="&#xf0;" horiz-adv-x="1157" d="M76 475q0 197 130 339t359 142q178 0 287 -102l8 -8h4q-70 199 -254 325l-360 -163l-27 98l277 129q-131 68 -291 104l41 119q236 -59 401 -158l269 121l26 -98l-198 -92q309 -242 309 -672q0 -106 -30 -206.5t-89 -186.5t-159.5 -138.5t-229.5 -52.5q-215 0 -344 149.5 t-129 350.5zM219 473q0 -152 90 -262.5t244 -110.5q176 0 268 132.5t92 299.5q0 133 -92 219.5t-241 86.5q-174 0 -267.5 -107.5t-93.5 -257.5z" />
<glyph unicode="&#xf1;" horiz-adv-x="1245" d="M47 909v121h143q125 0 125 -115v-47l-4 -73h4q37 94 142.5 177t267.5 83q186 0 266 -100.5t80 -299.5v-489q0 -45 45 -45h86v-121h-145q-66 0 -95.5 29.5t-29.5 95.5v493q0 145 -44 225.5t-179 80.5q-131 0 -235.5 -81t-139.5 -210q-16 -57 -17 -139v-494h-139v864 q0 45 -45 45h-86zM326 1202q0 240 190 240q59 0 103.5 -37t81 -74t73.5 -37q82 0 82 142h109q0 -240 -191 -240q-59 0 -104 37t-81 72.5t-75 35.5q-82 0 -82 -139h-106z" />
<glyph unicode="&#xf2;" horiz-adv-x="1251" d="M82 520q0 227 158.5 381t384.5 154q227 0 385.5 -153.5t158.5 -381.5q0 -231 -158.5 -388t-383.5 -157q-227 0 -386 157t-159 388zM225 520q0 -178 117 -299t285 -121q166 0 282.5 121t116.5 299q0 174 -116.5 291t-282.5 117q-168 0 -285 -117t-117 -291zM387 1440h156 l143 -244h-121z" />
<glyph unicode="&#xf3;" horiz-adv-x="1251" d="M82 520q0 227 158.5 381t384.5 154q227 0 385.5 -153.5t158.5 -381.5q0 -231 -158.5 -388t-383.5 -157q-227 0 -386 157t-159 388zM225 520q0 -178 117 -299t285 -121q166 0 282.5 121t116.5 299q0 174 -116.5 291t-282.5 117q-168 0 -285 -117t-117 -291zM565 1196 l144 244h155l-178 -244h-121z" />
<glyph unicode="&#xf4;" horiz-adv-x="1251" d="M82 520q0 227 158.5 381t384.5 154q227 0 385.5 -153.5t158.5 -381.5q0 -231 -158.5 -388t-383.5 -157q-227 0 -386 157t-159 388zM225 520q0 -178 117 -299t285 -121q166 0 282.5 121t116.5 299q0 174 -116.5 291t-282.5 117q-168 0 -285 -117t-117 -291zM385 1196 l170 244h143l170 -244h-129l-110 166h-4l-111 -166h-129z" />
<glyph unicode="&#xf5;" horiz-adv-x="1251" d="M82 520q0 227 158.5 381t384.5 154q227 0 385.5 -153.5t158.5 -381.5q0 -231 -158.5 -388t-383.5 -157q-227 0 -386 157t-159 388zM225 520q0 -178 117 -299t285 -121q166 0 282.5 121t116.5 299q0 174 -116.5 291t-282.5 117q-168 0 -285 -117t-117 -291zM303 1202 q0 240 191 240q59 0 103 -37t81 -74t74 -37q82 0 82 142h108q0 -240 -190 -240q-59 0 -104.5 37t-81.5 72.5t-74 35.5q-82 0 -82 -139h-107z" />
<glyph unicode="&#xf6;" horiz-adv-x="1251" d="M82 520q0 227 158.5 381t384.5 154q227 0 385.5 -153.5t158.5 -381.5q0 -231 -158.5 -388t-383.5 -157q-227 0 -386 157t-159 388zM225 520q0 -178 117 -299t285 -121q166 0 282.5 121t116.5 299q0 174 -116.5 291t-282.5 117q-168 0 -285 -117t-117 -291zM414 1264v176 h121v-176h-121zM721 1264v176h121v-176h-121z" />
<glyph unicode="&#xf7;" d="M102 522v119h1004v-119h-1004zM526 125v151h154v-151h-154zM526 887v151h154v-151h-154z" />
<glyph unicode="&#xf8;" horiz-adv-x="1251" d="M82 520q0 227 158.5 381t384.5 154q154 0 280 -76l80 113l84 -62l-80 -110q180 -158 180 -400q0 -231 -158.5 -388t-383.5 -157q-145 0 -265 66l-77 -109l-84 62l75 104q-194 162 -194 422zM225 520q0 -186 129 -311l475 663q-94 55 -202 56q-168 0 -285 -117t-117 -291z M438 150q88 -49 189 -50q166 0 282.5 121t116.5 299q0 172 -119 287z" />
<glyph unicode="&#xf9;" horiz-adv-x="1234" d="M43 909v121h145q66 0 95.5 -28.5t29.5 -92.5v-497q0 -145 45 -225.5t181 -80.5q168 0 273.5 128t105.5 303v493h139v-864q0 -45 45 -45h86v-121h-141q-125 0 -125 115v47l4 74h-4q-39 -94 -144.5 -177.5t-257.5 -83.5q-180 0 -263 98.5t-83 301.5v489q0 45 -45 45h-86z M365 1440h155l144 -244h-121z" />
<glyph unicode="&#xfa;" horiz-adv-x="1234" d="M43 909v121h145q66 0 95.5 -28.5t29.5 -92.5v-497q0 -145 45 -225.5t181 -80.5q168 0 273.5 128t105.5 303v493h139v-864q0 -45 45 -45h86v-121h-141q-125 0 -125 115v47l4 74h-4q-39 -94 -144.5 -177.5t-257.5 -83.5q-180 0 -263 98.5t-83 301.5v489q0 45 -45 45h-86z M543 1196l143 244h156l-178 -244h-121z" />
<glyph unicode="&#xfb;" horiz-adv-x="1234" d="M43 909v121h145q66 0 95.5 -28.5t29.5 -92.5v-497q0 -145 45 -225.5t181 -80.5q168 0 273.5 128t105.5 303v493h139v-864q0 -45 45 -45h86v-121h-141q-125 0 -125 115v47l4 74h-4q-39 -94 -144.5 -177.5t-257.5 -83.5q-180 0 -263 98.5t-83 301.5v489q0 45 -45 45h-86z M362 1196l170 244h144l170 -244h-129l-111 166h-4l-110 -166h-130z" />
<glyph unicode="&#xfc;" horiz-adv-x="1234" d="M43 909v121h145q66 0 95.5 -28.5t29.5 -92.5v-497q0 -145 45 -225.5t181 -80.5q168 0 273.5 128t105.5 303v493h139v-864q0 -45 45 -45h86v-121h-141q-125 0 -125 115v47l4 74h-4q-39 -94 -144.5 -177.5t-257.5 -83.5q-180 0 -263 98.5t-83 301.5v489q0 45 -45 45h-86z M391 1264v176h121v-176h-121zM698 1264v176h121v-176h-121z" />
<glyph unicode="&#xfd;" horiz-adv-x="1103" d="M16 -330l66 103q0 -4 18.5 -21.5t57.5 -37t78 -19.5q121 0 190 168l61 141l-362 858q-20 47 -72 47h-20v121h63q70 0 99.5 -21.5t58.5 -90.5l264 -644l37 -110h4q14 59 35 110l254 644q27 70 57.5 91t102.5 21h63v-121h-20q-53 0 -72 -47l-444 -1077 q-41 -100 -118 -157.5t-177 -57.5q-133 0 -220 94zM487 1196l144 244h155l-178 -244h-121z" />
<glyph unicode="&#xfe;" horiz-adv-x="1196" d="M41 1319v121h145q66 0 95.5 -30t29.5 -95v-367l-4 -90h4q100 197 346 197q209 0 331 -148.5t122 -390.5t-122 -391.5t-331 -149.5q-74 0 -136 19.5t-99 48.5t-63.5 57.5t-36.5 46.5l-11 21h-4q4 -37 4 -90v-488h-139v1684q0 45 -45 45h-86zM307 514q0 -211 96.5 -312.5 t239.5 -101.5q145 0 234.5 114t89.5 302q0 186 -89.5 299t-234.5 113q-147 0 -241.5 -100.5t-94.5 -313.5z" />
<glyph unicode="&#xff;" horiz-adv-x="1103" d="M16 -330l66 103q0 -4 18.5 -21.5t57.5 -37t78 -19.5q121 0 190 168l61 141l-362 858q-20 47 -72 47h-20v121h63q70 0 99.5 -21.5t58.5 -90.5l264 -644l37 -110h4q14 59 35 110l254 644q27 70 57.5 91t102.5 21h63v-121h-20q-53 0 -72 -47l-444 -1077 q-41 -100 -118 -157.5t-177 -57.5q-133 0 -220 94zM336 1264v176h121v-176h-121zM643 1264v176h121v-176h-121z" />
<glyph unicode="&#x152;" horiz-adv-x="1863" d="M78 721q0 313 197.5 526t496.5 213q51 0 153.5 -10t137.5 -10h565q66 0 95.5 -30t29.5 -95v-144h-133v97q0 45 -45 45h-477v-525h524v-126h-524v-535h536q45 0 45 45v96h133v-143q0 -125 -114 -125h-633q-35 0 -138.5 -10t-154.5 -10q-299 0 -496.5 213t-197.5 528z M227 721q0 -262 150.5 -433t394.5 -171q119 0 182 14v1176q-72 16 -182 16q-242 0 -393.5 -171t-151.5 -431z" />
<glyph unicode="&#x153;" horiz-adv-x="2068" d="M82 512q0 240 157.5 391.5t385.5 151.5q154 0 276.5 -74t190.5 -203h4q59 131 174.5 204t265.5 73q205 0 318.5 -136.5t113.5 -338.5l-4 -70h-790q8 -193 121.5 -301.5t277.5 -108.5q170 0 299 117l10 10l68 -104q-16 -16 -48 -41t-131.5 -66t-203.5 -41q-160 0 -283 75 t-186 206h-4q-66 -131 -189 -206t-280 -75q-227 0 -385 149.5t-158 387.5zM225 512q0 -182 116 -297t284 -115t283.5 117t115.5 303q0 182 -116.5 295t-282.5 113q-168 0 -284 -116t-116 -300zM1180 621h645q-8 154 -89 235.5t-202 81.5q-133 0 -231 -83.5t-123 -233.5z" />
<glyph unicode="&#x178;" horiz-adv-x="1212" d="M20 1313v127h56q76 0 113.5 -20.5t82.5 -94.5l244 -407l88 -162h4q43 86 88 162l244 407q45 74 83 94.5t114 20.5h55v-127h-33q-63 0 -94 -53l-387 -633v-627h-143v627l-385 633q-33 53 -97 53h-33zM395 1608v176h121v-176h-121zM702 1608v176h121v-176h-121z" />
<glyph unicode="&#x2c6;" horiz-adv-x="962" d="M240 1540l170 244h143l170 -244h-129l-111 166h-4l-110 -166h-129z" />
<glyph unicode="&#x2dc;" horiz-adv-x="1007" d="M182 1546q0 240 191 240q59 0 103 -37t81 -74t74 -37q82 0 82 142h108q0 -240 -190 -240q-59 0 -104.5 37t-81 73t-74.5 36q-82 0 -82 -140h-107z" />
<glyph unicode="&#x2013;" horiz-adv-x="1314" d="M145 522v119h1024v-119h-1024z" />
<glyph unicode="&#x2014;" horiz-adv-x="1724" d="M145 522v119h1434v-119h-1434z" />
<glyph unicode="&#x2018;" horiz-adv-x="434" d="M104 1106l115 352h111l-80 -352h-146z" />
<glyph unicode="&#x2019;" horiz-adv-x="434" d="M104 1108l80 352h146l-115 -352h-111z" />
<glyph unicode="&#x201a;" horiz-adv-x="434" d="M104 -184l80 352h146l-115 -352h-111z" />
<glyph unicode="&#x201c;" horiz-adv-x="675" d="M104 1106l115 352h111l-80 -352h-146zM346 1106l115 352h110l-79 -352h-146z" />
<glyph unicode="&#x201d;" horiz-adv-x="675" d="M104 1108l80 352h146l-115 -352h-111zM346 1108l80 352h145l-114 -352h-111z" />
<glyph unicode="&#x201e;" horiz-adv-x="675" d="M104 -184l80 352h146l-115 -352h-111zM346 -184l80 352h145l-114 -352h-111z" />
<glyph unicode="&#x2022;" horiz-adv-x="899" d="M158 596q0 121 86 207t206.5 86t205.5 -86t85 -207t-85 -207t-205.5 -86t-206.5 86t-86 207z" />
<glyph unicode="&#x2026;" horiz-adv-x="1673" d="M276 0v164h158v-164h-158zM758 0v164h157v-164h-157zM1239 0v164h158v-164h-158z" />
<glyph unicode="&#x2039;" horiz-adv-x="702" d="M78 578l336 421h149l-336 -421l336 -420h-149z" />
<glyph unicode="&#x203a;" horiz-adv-x="702" d="M135 158l336 420l-336 421h152l336 -421l-336 -420h-152z" />
<glyph unicode="&#x20ac;" horiz-adv-x="1208" d="M80 545v104h117q-4 37 -4 72l4 94h-117v105h135q61 242 249.5 393t438.5 151q49 0 96.5 -6t69.5 -12l23 -6l-33 -133q-74 23 -158 22q-195 0 -337 -111.5t-195 -297.5h620l-20 -105h-623q-8 -41 -8 -90l4 -76h596l-18 -104h-553q47 -195 193.5 -314.5t344.5 -119.5 q47 0 93 7t69 13l23 8l32 -131q-94 -33 -219 -33q-258 0 -447.5 159t-244.5 411h-131z" />
<glyph unicode="&#x2122;" horiz-adv-x="1998" d="M88 1251v95q0 53 20.5 73.5t75.5 20.5h566q55 0 75.5 -20.5t20.5 -73.5v-95h-107v62q0 20 -20 20h-195v-790h-116v790h-193q-20 0 -20 -20v-62h-107zM858 647h51q20 0 23 21l59 772h107l235 -514q18 -39 29 -84h4q10 45 29 84l235 514h107l59 -772q2 -20 23 -21h51v-104 h-88q-55 0 -74.5 19.5t-24.5 74.5l-41 514l3 59h-5l-229 -499h-94l-230 499h-4l2 -59l-41 -514q-4 -55 -23.5 -74.5t-74.5 -19.5h-88v104z" />
<glyph unicode="&#xe000;" horiz-adv-x="1030" d="M0 1030h1030v-1030h-1030v1030z" />
<glyph unicode="&#xfb01;" horiz-adv-x="1118" d="M51 913v117h129v37q0 119 38 202t98.5 118.5t112.5 49t106 13.5l63 -4v-125q-20 4 -51 4q-37 0 -70 -9t-71.5 -32.5t-62.5 -80t-24 -136.5v-37h488q66 0 95.5 -29.5t29.5 -95.5v-739q0 -45 45 -45h86v-121h-145q-66 0 -95.5 29.5t-29.5 95.5v743q0 45 -45 45h-429v-913 h-139v913h-129zM788 1264v176h136v-176h-136z" />
<glyph unicode="&#xfb02;" horiz-adv-x="1105" d="M51 913v117h129v37q0 96 26.5 169t64.5 109.5t90.5 60.5t91.5 29t82 5h260q66 0 95.5 -30t29.5 -95v-1149q0 -45 45 -45h86v-121h-146q-66 0 -95.5 29.5t-29.5 95.5v1149q0 45 -45 45h-186q-229 0 -230 -252v-37h263v-117h-263v-913h-139v913h-129z" />
<glyph unicode="&#xfb03;" horiz-adv-x="1722" d="M51 913v117h129v37q0 119 38 202t98.5 118.5t112.5 49t106 13.5l63 -4v-125q-20 4 -49 4q-37 0 -71 -9t-72.5 -34t-62.5 -80t-24 -137v-35h465v37q0 119 38 202t98.5 118.5t112.5 49t106 13.5l63 -4v-125q-20 4 -49 4q-37 0 -70.5 -9t-72.5 -34t-62.5 -80t-23.5 -137v-35 h487q66 0 95.5 -29.5t29.5 -95.5v-739q0 -45 45 -45h86v-121h-145q-66 0 -95.5 29.5t-29.5 95.5v743q0 45 -45 45h-428v-913h-140v913h-465v-913h-139v913h-129zM1393 1264v176h135v-176h-135z" />
<glyph unicode="&#xfb04;" horiz-adv-x="1708" d="M51 913v117h129v43q0 117 36 198t96.5 116.5t111.5 49t106 13.5l68 -4v-125q-23 4 -53 4q-37 0 -71 -9t-71.5 -34t-60.5 -79t-23 -132v-41h465v37q0 96 27 169t64.5 109.5t90 60.5t91.5 29t82 5h260q66 0 95.5 -30t29.5 -95v-1149q0 -45 45 -45h86v-121h-146 q-66 0 -95.5 29.5t-29.5 95.5v1149q0 45 -45 45h-186q-229 0 -229 -252v-37h262v-117h-262v-913h-140v913h-465v-913h-139v913h-129z" />
</font>
</defs>
</svg>
